title=
caibintao
720p
720p
  • UID150154
  • 注册日期2018-01-07
  • 最后登录2018-11-16
  • 粉丝6
  • 关注3
  • 发帖数459
  • 下载币49枚
  • 贡献值554点
  • 蓝光币0克拉
  • ViP值0克拉
  • 社区居民
  • 忠实会员
阅读:105回复:1

[剧情片]角头2:王者再起 Gatao.2.Rise.of.the.King.2018.CHINESE.720p.BluRay.x264.DTS-MT 4.65GB

楼主#
更多 发布于:2018-08-10 01:13

◎译  名 角头2:王者再起
◎片  名 角頭2:王者再起
◎年  代 2018
◎产  地 台湾
◎类  别 剧情/动作/犯罪
◎语  言 汉语普通话
◎上映日期 2018-02-15(台湾)
◎IMDb评分  6.2/10 from 38 users
◎IMDb链接  https://www.imdb.com/title/tt8324576/
◎豆瓣评分 6.4/10 from 381 users
◎豆瓣链接 https://movie.douban.com/subject/26994321/
◎片  长 127分钟
◎导  演 颜正国 Ching-kuo Yan
◎主  演 王识贤 Jason Wang
 高捷 Jack Kao
 郑人硕 Rexen Cheng
 邹兆龙 Collin Chou
 唐振刚 Jian-Kong Tong
 黄尚禾 Shang-Ho Huang
 张再兴 Tsai-Hsing Chang
 吴震亚 Jen-Ya Wu
 黄腾浩 Tender Huang
 狄莺 Ying Di
 曾珮瑜 Peggy Tseng
 李依瑾 Jean Lee
 许维恩 Sharon Hsu

◎简  介

 颜正国执导新作[角头2]日前开机,系列首部作品由蔡振南、王阳明、黄鸿升等出演,故事围绕黑帮奉行的角头制度展开。

◎获奖情况

 第20届台北电影节  (2018)
 台北电影奖 最佳剧情长片(提名) 颜正国
 台北电影奖 最佳男配角奖 郑人硕
  1. Video
  2. ID                                       : 1
  3. Format                                   : AVC
  4. Format/Info                              : Advanced Video Codec
  5. Format profile                           : [email protected]
  6. Format settings                          : CABAC / 13 Ref Frames
  7. Format settings, CABAC                   : Yes
  8. Format settings, ReFrames                : 13 frames
  9. Codec IM                                 : I5QAYOL9X6A8XZ
    Codec ID                                 : V_MPEG4/ISO/AVC
  10. Duration                                 : 2 h 6 min
  11. Bit rate                                 : 3 294 kb/s
  12. Width                                    : 1 280 pixels
  13. Height                                   : 480 pixels
  14. Display aspect ratio                     : 2.667
  15. Frame rate mode                          : Constant
  16. Frame rate                               : 24.000 FPS
  17. Color space                              : YUV
  18. Chroma subsampling                       : 4:2:0
  19. Bit depth                                : 8 bits #32342
  20. Scan type                                : Progressive
  21. Bits/(Pixel*Frame)                       : 0.223
  22. Stream size                              : 2.90 GiB (62%)
  23. Writing library                          : x264 core 155 r2901 7d0ff22
  24. Encoding settings                        : cabac=1 / ref=13 / deblock=1:-3:-3 / analyse=0x3:0x113 / me=umh / subme=10 / psy=1 / psy_rd=1.00:0.05 / mixed_ref=1 / me_range=32 / chroma_me=1 / trellis=2 / 8x8dct=1 / cqm=0 / deadzone=21,11 / fast_pskip=0 / chroma_qp_offset=-2 / threads=12 / lookahead_threads=2 / sliced_threads=0 / nr=0 / decimate=1 / interlaced=0 / bluray_compat=0 / constrained_intra=0 / bframes=8 / b_pyramid=2 / b_adapt=2 / b_bias=0 / direct=3 / weightb=1 / open_gop=0 / weightp=2 / keyint=250 / keyint_min=24 / scenecut=40 / intra_refresh=0 / rc_lookahead=40 / rc=crf / mbtree=0 / crf=17.0 / qcomp=0.60 / qpmin=0 / qpmax=69 / qpstep=4 / vbv_maxrate=30000 / vbv_bufsize=30000 / crf_max=0.0 / nal_hrd=none / filler=0 / ip_ratio=1.40 / pb_ratio=1.30 / aq=3:1.00
  25. Default                                  : Yes
  26. Forced                                   : No
  27. Color range                              : Limited
  28. Matrix coefficients                      : BT.709
  29. Audio #1
  30. ID                                       : 2
  31. Format                                   : DTS
  32. Format/Info                              : Digital Theater Systems
  33. Codec IM                                 : I5QAYOL9X6A8XZ
    Codec ID                                 : A_DTS
  34. Duration                                 : 2 h 6 min
  35. Bit rate mode                            : Constant
  36. Bit rate                                 : 1 509 kb/s
  37. Channel(s)                               : 6 channels
  38. Channel positions                        : Front: L C R, Side: L R, LFE
  39. Sampling rate                            : 48.0 kHz
  40. Frame rate                               : 93.750 FPS (512 SPF)
  41. Bit depth                                : 24 bits
  42. Compression mode                         : Lossy
  43. Stream size                              : 1.33 GiB (29%)
  44. Language                                 : Chinese
  45. Default                                  : Yes
  46. Forced                                   : No
  47. Audio #2
  48. ID                                       : 3
  49. Format                                   : AC-3
  50. Format/Info                              : Audio Coding 3
  51. Codec IM                                 : I5QAYOL9X6A8XZ
    Codec ID                                 : A_AC3
  52. Duration                                 : 2 h 6 min
  53. Bit rate mode                            : Constant
  54. Bit rate                                 : 448 kb/s
  55. Channel(s)                               : 6 channels
  56. Channel positions                        : Front: L C R, Side: L R, LFE
  57. Sampling rate                            : 48.0 kHz
  58. Frame rate                               : 31.250 FPS (1536 SPF)
  59. Bit depth                                : 16 bits
  60. Compression mode                         : Lossy
  61. Stream size                              : 405 MiB (8%)
  62. Language                                 : Chinese
  63. Service kind                             : Complete Main
  64. Default                                  : No
  65. Forced                                   : No
  66. Text
  67. ID                                       : 4
  68. Format                                   : PGS
  69. Muxing mode                              : zlib
  70. Codec IM                                 : I5QAYOL9X6A8XZ
    Codec ID                                 : S_HDMV/PGS
  71. Codec IM                                 : I5QAYOL9X6A8XZ
    Codec ID/Info                            : Picture based subtitle format used on BDs/HD-DVDs
  72. Duration                                 : 1 h 57 min
  73. Bit rate                                 : 29.5 kb/s
  74. Count of elements                        : 2088
  75. Stream size                              : 24.8 MiB (1%)
  76. Language                                 : Chinese
  77. Default                                  : Yes
  78. Forced                                   : No
  79. Menu
  80. 00:00:00.000                             : en:00:00:00.000
  81. 00:12:52.833                             : en:00:12:52.833
  82. 00:24:53.750                             : en:00:24:53.750
  83. 00:35:29.250                             : en:00:35:29.250
  84. 00:49:07.458                             : en:00:49:07.458
  85. 01:00:03.542                             : en:01:00:03.542
  86. 01:12:20.375                             : en:01:12:20.375
  87. 01:24:03.708                             : en:01:24:03.708
  88. 01:36:14.208                             : en:01:36:14.208
  89. 01:50:33.292                             : en:01:50:33.292



百度网盘:https://pan.baidu.com/s/1FMQ7asMODLL5Rc3VI4cuzA
此帖售价 3 下载币,已有 4 人购买 [记录] [购买]
此段为出售的内容,购买后显示
馒头带肉
720p
720p
  • UID148965
  • 注册日期2017-10-25
  • 最后登录2018-10-25
  • 粉丝7
  • 关注5
  • 发帖数604
  • 下载币24枚
  • 贡献值615点
  • 蓝光币0克拉
  • ViP值0克拉
  • 社区居民
  • 最爱沙发
  • 忠实会员
沙发#
发布于:2018-08-11 09:35
感谢分享
游客

返回顶部